Enable / Włącz Javascript
 Widok 
 Kategorie 
 Nitro Torrent w sieci 
 Top 10 użytkowników 
 Strażak Sam Kamera w akcji - Fireman Sam: Set for Action! *2018* [TVRip] [XViD] [Dubbing PL] [ts559]

Strażak Sam Kamera w akcji - Fireman Sam: Set for Action! *2018* [TVRip] [XViD] [Dubbing PL] [ts559]
Kategoria: » » »
Dodane: 27/12/2018
Rozmiar: 2.04 GB
Uploader: Anonim
seed(ów): 6
leecher(ów): 4
Pobrane: 98
Komentarzy: 0
Pobierz Torrent Pobierz Torrent
Pobierz [Magnet] Pobierz [Magnet]

Obserwuj
Raportuj
==================
...::: INFO :::...
==================

Produkcja: Wielka Brytania
Gatunek: film animowany, przygodowy
Premiera: 15 września 2018 (Polska)
Reżyseria: Gary Andrews, Clint Butler
Scenariusz: Laura Beaumont, Paul Larson

==================
...::: OPIS :::...
==================

Kolejne przygody znanego na całym świecie dzielnego strażaka o imieniu Sam oraz jego nieustraszonej drużyny to ważna lekcja dla najmłodszych. Dzięki bajce dzieci dowiadują się, że praca zespołowa daje lepsze efekty, a ogień to niebezpieczny żywioł i należy się z nim obchodzić bardzo ostrożnie. Mali widzowie dowiadują się także na czym polega prawdziwa przyjaźń oraz że warto pomagać innym.

Heroiczne wyczyny Strażaka Sama zostają zauważone przez reżysera z Hollywood. Ekipa filmowa przyjeżdża do miasteczka Pontypandy, aby Sam mógł zagrać główną rolę w nowym kinowym hicie. W trakcie nagrań dochodzi do serii niebezpiecznych zdarzeń, za które wydaje się odpowiedzialny Strażak. Sam traci posadę w straży pożarnej oraz główną rolę w filmie, a jego miejsce zajmuje Flex Dexter - hollywoodzki aktor, który w filmie miał grać strażaka, pomocnika Sama. Niestety, podczas gwiazdorskich pOPISów Flexa dochodzi do olbrzymiej eksplozji na nabrzeżu. Na szczęście Strażak Sam jest w pobliżu i spieszy z pomocą. Czy zdoła uratować miasteczko Pontypandy przed gigantycznym pożarem?

==============
...::: OBSADA :::...
==============

Tomasz Błasiak ? Sam
Monika Wierzbicka ?Penny, Dylis, Sara
Brygida Turowska ? Norman
Katarzyna Łaska ? James, Helen Flood
Alina Więckiewicz ? Mandy, Bronwyn Jones
Stefan Knothe ? oficer Steel

=======================
...::: DANE TECHNICZNE :::...
=======================

Format                         : AVI
Format/INFO                    : Audio Video Interleave
File size                      : 2.04 GiB
Duration                       : 1 h 1 min
Overall bit rate               : 4 750 kb/s
Writing application            : Lavf55.12.100
Writing library                : Boilsoft AVI tool build 1/release

Video
ID                             : 0
Format                         : AVC
Format/INFO                    : Advanced Video Codec
Format profile                 : Main@L3.2
Format settings                : CABAC / 2 Ref Frames
Format settings, CABAC         : Yes
Format settings, ReFrames      : 2 frames
Codec ID                       : H264
Duration                       : 1 h 1 min
Bit rate                       : 4 412 kb/s
Width                          : 1 280 pixels
Height                         : 720 pixels
Display aspect ratio           : 16:9
Frame rate mode                : Variable
Frame rate                     : 50.000 FPS
Color space                    : YUV
Chroma subsampling             : 4:2:0
Bit depth                      : 8 bits
Scan type                      : Progressive
Bits/(Pixel*Frame)             : 0.096
Stream size                    : 1.89 GiB (93%)

Audio
ID                             : 1
Format                         : MPEG Audio
Format version                 : Version 1
Format profile                 : Layer 3
Format settings                : Joint stereo
Codec ID                       : 55
Codec ID/Hint                  : MP3
Duration                       : 1 h 1 min
Bit rate mode                  : Constant
Bit rate                       : 320 kb/s
Channel(s)                     : 2 channels
Sampling rate                  : 48.0 kHz
Compression mode               : Lossy
Stream size                    : 141 MiB (7%)
Alignment                      : Aligned on interleaves
Interleave, duration           : 24  ms (1.20 video frame)
Interleave, preload duration   : 504  ms
Dostępne napisy
Brak napisów
Szczegóły torrenta
Tracker udp://tracker.opentrackr.org:1337/announce
Multitracker [ Pokaż ]
Kategoria: » » » [Zgłoś błąd]
Dodane 27-12-2018
Podziękowali:
0 użytkowników 
Podziękuj!
Pokaż / Ukryj pliki:
Nazwa pliku Rozmiar
! Chcesz mieć TO szybciej - zapraszamy-KLIK.url 0.11 KB
! Want YOU more -CLIK.url 0.11 KB
Zapraszamy-KLIK.url 0.11 KB
LoGo.png 202.81 KB
Strażak Sam Kamera w akcji.avi 2.04 GB
5 plików
Brak komentarzy...
The Return Of Superman Special | General Discussions | Organic food