Enable / Włącz Javascript
 Widok 
 Kategorie 
 Nitro Torrent w sieci 
 Top 10 użytkowników 
 Jailhouse Heat 3D(OU) *2011* [mini-HD.1080p.Over-Under.AC3.BluRay.x264-SONDA] [ENG] [AT-TEAM]

Jailhouse Heat 3D(OU) *2011* [mini-HD.1080p.Over-Under.AC3.BluRay.x264-SONDA] [ENG] [AT-TEAM]
Kategoria: » » »
Dodane: 03/10/2017
Rozmiar: 3.93 GB
Uploader: rankahottie.com❱ Wędrowiec
seed(ów): 0
leecher(ów): 0
Pobrane: 837
Komentarzy: 3
Pobierz Torrent Pobierz Torrent
Pobierz [Magnet] Pobierz [Magnet]

Obserwuj
Raportuj

Film w wersji 3D Over-Under
Do odtworzenia filmu WYMAGANY odpowiedni sprzęt (TV 3D)
=========================================

Kopia mini-HD 1080p = 3,92 GB

Studio: Digital Playground
Starring : Alyssa Reece, Jayden James, Jenna Haze, Kenzie Marie, Kianna Dior, London Keys, Madison Parker, Sienna West

For the first time ever from Digital Playground, using the same epic camera technique as "Avatar", comes 3D filmmaking like you've never experienced before. Get inside the mind of an obsessed, jilted lover who creates a lusty adult film to deal with his erupting sexual needs and fantasies of kinky prison sex. With an all-star cast including Jenna Haze and Jayden Jaymes, jailhouse Heat 3D, combines comedic sexploitation with perverted pleasures.

BluRay 3D Rip (OU) - SONDA
===========================

General
Format : Matroska
Format version : Version 2
File size : 3.93 GiB
Duration : 1h 40mn
Overall bit rate : 5 597 Kbps
Movie name : JAILHOUSE_HEAT_3D.Bluray3D Rip by Sonda [AT-Team]
Encoded date : UTC 2014-03-04 08:57:56
Writing application : mkvmerge v5.7.0 ('The Whirlwind') built on Jul 8 2012 20:08:51
Writing library : libebml v1.2.3 + libmatroska v1.3.0

Video
ID : 1
Format : AVC
Format/Info : Advanced Video Codec
Format profile : High@L4.1
Format settings, CABAC : Yes
Format settings, ReFrames : 2 frames
Codec ID : V_MPEG4/ISO/AVC
Duration : 1h 40mn
Bit rate : 5 038 Kbps
Width : 1 920 pixels
Height : 1 080 pixels
Display aspect ratio : 16:9 (1.78:1)
Frame rate mode : Constant
Frame rate : 23.976 fps
Color space : YUV
Chroma subsampling : 4:2:0
Bit depth : 8 bits
Scan type : Progressive
Bits/(Pixel*Frame) : 0.101
Stream size : 3.53 GiB (90%)
Title : BluRay 3D Rip by Sonda
Writing library : x264 core
Default : Yes
Forced : No
Color primaries : BT.709
Transfer characteristics : BT.709
Matrix coefficients : BT.709

Audio
ID : 2
Format : AC-3
Format/Info : Audio Coding 3
Mode extension : CM (complete main)
Format settings, Endianness : Big
Codec ID : A_AC3
Duration : 1h 40mn
Bit rate mode : Constant
Bit rate : 448 Kbps
Channel(s) : 6 channels
Channel positions : Front: L C R, Side: L R, LFE
Sampling rate : 48.0 KHz
Bit depth : 16 bits
Compression mode : Lossy
Stream size : 322 MiB (8%)
Title : AC3 5.1 English
Language : English
Default : Yes
Forced : No

Menu
00:00:00.000 : en:(01)00:00:00:000
00:04:19.842 : en:(02)00:04:19:842
00:07:56.934 : en:(03)00:07:56:934
00:14:17.982 : en:(04)00:14:17:982
00:21:02.886 : en:(05)00:21:02:886
00:24:10.657 : en:(06)00:24:10:657
00:28:41.344 : en:(07)00:28:41:344
00:29:43.281 : en:(08)00:29:43:281
00:37:12.063 : en:(09)00:37:12:063
00:43:26.395 : en:(10)00:43:26:395
00:45:33.897 : en:(11)00:45:33:897
00:57:14.305 : en:(12)00:57:14:305
01:00:17.363 : en:(13)01:00:17:363
01:02:38.713 : en:(14)01:02:38:713
01:14:53.906 : en:(15)01:14:53:906
01:21:00.689 : en:(16)01:21:00:689
01:23:50.567 : en:(17)01:23:50:567
01:25:11.189 : en:(18)01:25:11:189
01:36:44.381 : en:(19)01:36:44:381


Dostępne napisy
Brak napisów
Szczegóły torrenta
Tracker http://tracker.aletorrenty.pl:2710/announce
Multitracker [ Pokaż ]
Kategoria: » » » [Zgłoś błąd]
Dodane 03-10-2017
Podziękowali:
0 użytkowników 
Podziękuj!
Pokaż / Ukryj pliki:
Nazwa pliku Rozmiar
JAILHOUSE_HEAT_3D_miniHD(Sonda).mkv 3.93 GB
Jailhouse Heat 3D.jpg 155.82 KB
AT-TEAM old movie.jpg 140.78 KB
AT-TEAM.jpg 36.66 KB
Read iNFO.txt 2.07 KB
Ale Torrenty Team enjoy !.url 0.11 KB
6 plików

<< Poprz.      Następna >>
1 - 3



Dario109 (1)
hej skopiu ten film na dysk zewneczny zobaczy czy obiera bo ten film ma tylko.97.5
28/03/2018 18:57:35 # 0 0


projektor (1)
Ten nie laduje sie do konca tylko 97,5% a potem jest stopp, brak seedow.
08/10/2017 20:41:37 # 0 0


flo333 (1)
dajcie seeda
07/10/2017 21:13:18 # 0 0

1 - 3
<< Poprz.      Następna >>

Bastelmaterialien | Helena Bonham Carter | Ashley Bell